#TITLE:Dream Battle Challenge;
#SUBTITLE:SDO China lv27 - [N]hok[Q] Simfile;
#ARTIST:Touhou OST;
#TITLETRANSLIT:;
#SUBTITLETRANSLIT:;
#ARTISTTRANSLIT:;
#CREDIT:[N]hok[Q];
#BANNER:bn.png;
#BACKGROUND:bg.png;
#LYRICSPATH:;
#CDTITLE:cd.png;
#MUSIC:sdom2220.ogg;
#OFFSET:0.000;
#SAMPLESTART:43.125;
#SAMPLELENGTH:12.000;
#SELECTABLE:YES;
#BPMS:0.000=160.024,1.000=159.995,2.000=160.024,3.000=10.000,4.000=159.995,5.000=160.005,6.000=159.995,7.000=160.005,8.000=159.995,9.000=160.005,10.000=159.995,11.000=160.005,12.000=159.995,13.000=160.005,14.000=159.995,15.000=160.005,16.000=159.995,17.000=160.005,18.000=159.995,19.000=160.005,20.000=159.995,21.000=160.005,22.000=159.995,23.000=160.005,24.000=159.995,25.000=160.005,26.000=159.995,27.000=160.005,28.000=159.995,29.000=160.005,30.000=159.995,31.000=160.005,32.000=159.995,33.000=160.005,34.000=159.995,35.000=160.005,36.000=159.995,37.000=160.005,38.000=159.995,39.000=160.005,40.000=159.995,41.000=160.005,42.000=159.995,43.000=160.005,44.000=159.995,45.000=160.005,46.000=159.995,47.000=160.005,48.000=159.995,49.000=160.005,50.000=159.995,51.000=160.005,52.000=159.995,53.000=160.005,54.000=159.995,55.000=160.005,56.000=159.995,57.000=160.005,58.000=159.995,59.000=160.005,60.000=159.995,61.000=160.005,62.000=159.995,63.000=160.005,64.000=159.995,65.000=160.005,66.000=159.995,67.000=160.005,68.000=159.995,69.000=160.005,70.000=159.995,71.000=160.005,72.000=159.995,73.000=160.005,74.000=159.995,75.000=160.005,76.000=159.995,77.000=160.005,78.000=159.995,79.000=160.005,80.000=159.995,81.000=160.005,82.000=159.995,83.000=160.005,84.000=159.995,85.000=160.005,86.000=159.995,87.000=160.005,88.000=159.995,89.000=160.005,90.000=159.995,91.000=160.005,92.000=159.995,93.000=160.005,94.000=159.995,95.000=160.005,96.000=159.995,97.000=160.005,98.000=159.995,99.000=160.005,100.000=159.995,101.000=160.005,102.000=159.995,103.000=160.005,104.000=159.995,105.000=160.005,106.000=159.995,107.000=160.005,108.000=159.995,109.000=160.005,110.000=159.995,111.000=160.005,112.000=159.995,113.000=160.005,114.000=159.995,115.000=160.005,116.000=159.995,117.000=160.005,118.000=159.995,119.000=160.005,120.000=159.995,121.000=160.005,122.000=159.995,123.000=160.005,124.000=159.995,125.000=160.005,126.000=159.995,127.000=160.005,128.000=159.995,129.000=160.005,130.000=159.995,131.000=160.005,132.000=159.995,133.000=160.005,134.000=159.995,135.000=160.005,136.000=159.995,137.000=160.005,138.000=159.995,139.000=160.005,140.000=159.995,141.000=160.005,142.000=159.995,143.000=160.005,144.000=159.995,145.000=160.005,146.000=159.995,147.000=160.005,148.000=159.995,149.000=160.005,150.000=159.995,151.000=160.005,152.000=159.995,153.000=160.005,154.000=159.995,155.000=160.005,156.000=159.995,157.000=160.005,158.000=159.995,159.000=160.005,160.000=159.995,161.000=160.005,162.000=159.995,163.000=160.005,164.000=159.995,165.000=160.005,166.000=159.995,167.000=160.005,168.000=159.995,169.000=160.005,170.000=319.990,172.000=160.005,173.000=159.995,174.000=160.005,175.000=159.995,176.000=160.005,177.000=159.995,178.000=160.005,179.000=159.995,180.000=320.029,181.000=319.990,184.000=160.005,185.000=159.995,186.000=160.005,187.000=159.995,188.000=160.005,189.000=640.058,190.000=213.318,191.000=160.005,192.000=159.995,193.000=160.005,194.000=159.995,195.000=160.005,196.000=159.995,197.000=160.005,198.000=159.995,199.000=320.029,200.000=319.990,203.000=160.005,204.000=159.995,205.000=160.005,206.000=159.995,207.000=160.005,208.000=159.995,209.000=160.005,210.000=159.995,211.000=160.005,212.000=159.995,213.000=160.005,214.000=159.995,215.000=160.005,216.000=159.995,217.000=160.005,218.000=159.995,219.000=160.005,220.000=159.995,221.000=160.005,222.000=159.995,223.000=160.005,224.000=159.995,225.000=160.005,226.000=159.995,227.000=160.005,228.000=159.995,229.000=160.005,230.000=159.995,231.000=160.005,232.000=159.995,233.000=160.005,234.000=159.995,235.000=160.005,236.000=159.995,237.000=160.005,238.000=159.995,239.000=160.005,240.000=159.995,241.000=160.005,242.000=159.995,243.000=160.005,244.000=159.995,245.000=160.005,246.000=159.995,247.000=160.005,248.000=159.995,249.000=160.005,250.000=159.995,251.000=160.005,252.000=159.995,253.000=160.005,254.000=159.995,255.000=160.005,256.000=159.995,257.000=160.005,258.000=159.995,259.000=160.005,260.000=159.995,261.000=160.005,262.000=159.995,263.000=160.005,264.000=159.995,265.000=160.005,266.000=159.995,267.000=160.005,268.000=159.995,269.000=160.005,270.000=159.995,271.000=160.005,272.000=159.995,273.000=160.005,274.000=159.995,275.000=160.005,276.000=159.995,277.000=160.005,278.000=159.995,279.000=160.005,280.000=159.995,281.000=160.005,282.000=159.995,283.000=160.005,284.000=159.995,285.000=160.005,286.000=159.995,287.000=160.005,288.000=159.995,289.000=160.005,290.000=159.995,291.000=160.005,292.000=159.995,293.000=160.005,294.000=159.995,295.000=160.005,296.000=159.995,297.000=160.005,298.000=159.995,299.000=160.005,300.000=159.995,301.000=160.005,302.000=159.995,303.000=160.005,304.000=159.995,305.000=160.005,306.000=159.995,307.000=160.005,308.000=159.995,309.000=160.005,310.000=159.995,311.000=160.005,312.000=159.995,313.000=160.005,314.000=159.995,315.000=160.005,316.000=159.995,317.000=160.005,318.000=159.995,319.000=160.005,320.000=159.995,321.000=160.005,322.000=159.995,323.000=160.005,324.000=159.995,325.000=160.005,326.000=159.995,327.000=160.005,328.000=159.995,329.000=160.005,330.000=159.995;
#STOPS:;
#BGCHANGES:;
// cache tags:
#FIRSTBEAT:3.000;
#LASTBEAT:331.000;
#SONGFILENAME:Songs/SDO pack 4/Dream Battle/sdom2220.sm;
#HASMUSIC:1;
#HASBANNER:1;
#MUSICLENGTH:127.500;
// end cache tags

//---------------dance-single - ----------------
#NOTES:
     dance-single:
     :
     Hard:
     27:
     1.000,1.000,1.000,0.306,1.000,846.000,199.000,39.000,0.000,4.000:
0000
0000
0000
0000
0000
0000
0000
0000
0000
0000
0000
0000
0000
0000
0000
0000
0000
0000
0000
0000
0000
0000
0000
0000
0000
0000
0000
0000
0000
0000
0000
0000
0000
0000
0000
0000
0000
0000
0000
0000
0000
0000
0000
0000
0000
0000
0000
0000
0000
0000
0000
0000
0000
0000
0000
0000
0000
0000
0000
0000
0000
0000
0000
0000
0000
0000
0000
0000
0000
0000
0000
0000
0000
0000
0000
0000
0000
0000
0000
0000
0000
0000
0000
0000
0000
0000
0000
0000
0000
0000
0000
0000
0000
0000
0000
0000
0000
0000
0000
0000
0000
0000
0000
0000
0000
0000
0000
0000
0000
0000
0000
0000
0000
0000
0000
0000
0000
0000
0000
0000
0000
0000
0000
0000
0000
0000
0000
0000
0000
0000
0000
0000
0000
0000
0000
0000
0000
0000
0000
0000
0000
0000
0000
0000
2002
0000
0000
0000
0000
0000
0000
0000
0000
0000
0000
0000
0000
0000
0000
0000
0000
0000
0000
0000
0000
0000
0000
0000
0000
0000
0000
0000
0000
0000
0000
0000
0000
0000
0000
0000
0000
0000
0000
0000
0000
0000
0000
0000
0000
3003
0110
0000
,
1001
1001
1100
0011
,
1001
0001
1100
1100
1001
0000
1001
0000
,
1001
1100
0000
0000
1100
0000
0011
0000
,
1100
1001
1100
0011
0011
0000
1001
0000
,
1001
0110
1001
0000
1001
0000
0011
1100
,
0000
1001
1000
0011
0011
0000
1100
0000
,
1100
0011
1001
0000
1001
0000
1100
0000
,
0011
1001
1000
1001
1001
0000
0011
0000
,
1100
0000
1001
0000
1000
0100
0010
0001
0010
0001
0100
1000
0100
0001
0010
1000
,
0100
0010
0100
1000
0100
0010
0001
1000
0001
0000
0100
0010
0001
0010
0100
1000
,
1000
0001
0010
0100
0001
0100
0010
1000
0010
0001
0100
1000
0010
0100
1000
0001
,
0100
1000
0001
0010
0001
0010
0100
1000
0010
0100
1000
0001
0100
1000
0001
0010
,
1000
0100
0001
0010
1000
0100
0010
0001
0010
0100
0001
1000
0100
0010
0001
1000
,
0001
0010
0100
1000
0001
0100
0010
1000
0001
0010
1000
0100
0010
1000
0001
0100
,
0010
0100
0010
1000
0001
0010
0100
1000
1000
0100
0010
0001
0001
0010
1000
0100
,
0010
0001
0100
1000
0001
0010
1000
0100
1000
0100
0010
0001
0100
0010
0001
1000
,
0001
1100
1100
0000
1100
0000
0000
0000
0000
0000
1100
0000
0011
0000
0000
0000
,
0000
0000
0011
0000
1001
0000
0000
0000
0000
0000
0010
0001
0100
0000
0010
0000
,
0100
1000
0011
0000
0000
0011
1100
0000
,
0000
0000
0000
0000
1001
0000
0100
0010
0001
1000
0010
0100
0010
1000
0001
0100
,
0010
1000
0010
0100
0011
0000
0100
0010
1000
0100
0011
0001
1100
0010
0000
0000
,
0000
0000
0010
0100
0011
0100
1000
0010
0001
0000
0100
0010
1100
0000
0011
0000
,
0011
1100
1001
0000
1000
1001
0011
1000
,
0000
0000
0010
0001
1000
0100
0010
0001
0001
0010
0100
1000
0100
0010
0001
1000
,
1000
0100
0010
0001
1100
0000
0000
0000
0000
0000
1100
0000
0011
0000
0000
0000
,
0000
0000
0001
0000
1100
0000
0000
0000
0001
0000
0010
0001
1100
0000
0011
0000
,
0011
1100
1001
0000
0000
1001
1001
0000
,
0000
0000
0000
0000
1100
0000
0010
0100
0010
0001
1000
0100
0010
0001
0100
0010
,
0100
0001
1000
0100
0011
0000
0100
0010
1000
0100
0011
0100
0011
0000
0000
0000
,
0000
0000
0100
1000
0011
0000
0001
0100
1000
0000
0010
0001
1100
0000
0011
0000
,
1001
1001
0011
0000
1000
0011
1100
0001
,
0000
0000
0100
0010
0001
0100
0010
1000
0010
0100
0010
1000
0100
0010
0001
1000
,
1000
0100
0010
0001
2100
0010
0001
0100
3001
0010
1100
0010
0102
0010
0100
1000
,
0100
0010
1000
0103
2010
0001
0010
0100
0010
0100
0010
3001
1100
0000
0011
0000
,
0011
0000
1100
0000
0012
0100
1000
0100
0010
1003
1100
0010
2100
0001
0010
0001
,
0100
0010
0100
3001
0120
0001
0100
1000
0100
0001
1000
0001
1000
0100
0001
1000
,
0100
0001
0100
1030
0102
0010
0100
1000
1000
0013
1100
0010
2100
0010
0001
0100
,
0001
0010
3100
0010
1002
0100
0010
1000
0100
0013
1100
0001
0011
0000
1100
0000
,
1100
0000
0011
0000
1200
0010
0001
0010
0001
1300
0011
0100
2010
0100
0001
0100
,
0010
0001
0010
0100
0001
0010
0100
0001
0100
0001
0010
0100
0010
0100
0001
0100
,
0001
0010
0100
3010
1100
0000
0000
0000
0000
0000
1100
0000
0011
0000
0000
0000
,
0000
0000
0000
0000
0002
0000
0000
0000
0000
0000
0000
0000
0000
0000
0000
0003
,
1100
0000
0011
1001
1100
0000
0000
0011
,
1001
0000
0200
0000
,
0000
0000
0000
0000
0000
0000
0000
0000
0000
0000
0000
0000
0000
0000
0000
0300
,
0011
0000
0000
1100
1001
0000
0000
0000
,
0020
0000
0000
0000
0000
0000
0000
0000
0000
0030
0100
1000
0011
0000
1100
0000
,
1100
0011
1001
0000
0000
1100
0002
0000
,
0000
0000
0000
0000
,
0000
0000
0000
0000
0000
0000
0000
0000
0000
0000
0000
0003
1000
0100
0010
0001
,
0010
0001
0100
1000
0100
0001
1000
0010
0100
0010
1000
0010
0100
0001
0100
0010
,
1000
0100
0001
0010
0001
0010
0100
1000
1000
0100
0010
0001
0010
0100
0001
0100
,
0010
0001
0100
1000
0001
0010
1000
0100
0010
0100
0001
1000
0010
1000
0100
1000
,
0010
0100
0001
0100
0010
0100
1000
0001
0010
0100
0001
1000
0010
0100
1000
0001
,
0000
0010
1000
0001
0000
0100
0010
0001
0010
0100
1000
0001
0010
0100
1000
0001
,
1000
0010
0100
0001
0100
0010
0100
0001
0010
0100
1000
0001
1000
0100
0010
0001
,
0001
0010
0100
1000
1000
0100
0001
0010
0001
0010
0100
1000
0001
0010
1000
0100
,
1000
0100
0010
0001
0100
0001
0100
0010
0100
0010
1000
0010
1100
0100
0010
0001
,
1100
0001
0010
0100
0011
0100
0010
1100
0010
0100
1001
0010
0100
0010
1001
0100
,
1001
0100
0010
0001
1100
0010
0100
0011
1000
0100
0011
1000
0011
0010
0100
0010
,
1100
0001
0010
0100
1001
0010
0100
1001
0010
0100
1001
0010
0100
0010
1100
0100
,
0011
0100
0010
0100
1001
0010
0100
1001
0100
0010
1001
0100
0011
0100
1000
0100
,
0011
1000
0100
0010
1100
0010
0100
0011
1000
0100
1001
0010
0100
0010
1100
0100
,
0011
0100
1000
0010
1001
0000
0100
1001
0010
0000
0110
0000
1001
0100
0010
0100
,
1001
0100
0010
0001
1100
0010
0100
0011
1000
0100
1001
0010
0100
0010
1100
0001
,
0011
0010
0100
1000
1001
0100
0010
1001
0100
0010
1001
0100
1002
0000
0010
0000
,
0100
0003
2100
0000
0001
0000
0100
0000
0001
0000
0100
3000
0021
0000
0100
0000
,
0001
0000
0100
0030
1100
0000
0011
0000
1001
0000
0110
0000
2100
0000
0001
0000
,
0010
3000
0210
0000
1000
0000
0001
0000
1000
0000
0001
0300
1002
0000
0010
0000
,
1000
0000
1000
1000
0010
0010
1000
0000
1000
0000
1000
0003
0120
0000
0001
0000
,
1000
0030
1200
0000
0001
0000
1000
0000
0001
0000
1000
0300
1002
0000
0010
0000
,
1000
0000
1000
1003
0110
0000
1001
0000
1001
0000
0110
0000
2102
0000
0010
0000
,
0100
0003
0110
0000
0001
0000
0100
0000
0001
0000
0100
0000
0001
0010
0100
0001
,
0010
0100
0010
0001
0100
0100
0001
0000
0001
0000
0001
3000
0012
0100
1000
0100
,
1003
0100
0021
1000
0100
0001
0100
1000
0001
0100
1000
0130
2001
0010
0100
0010
,
0001
3000
0100
1000
0011
0000
1100
0000
1100
0000
0011
0000
2100
0000
0001
0000
,
0010
3000
0210
0000
0001
0000
1000
1000
0001
0001
1000
0300
1002
0000
0010
0000
,
0010
0000
1000
0000
0010
0010
1000
1000
0100
0100
1000
1003
0200
0000
0000
0000
,
0000
0000
0000
0300
0020
0000
0000
0000
0000
0000
0000
0030
2000
0000
0000
0000
,
0000
3000
0010
1000
0100
0000
1000
0000
1000
0000
0001
0000
0020
0000
0000
0000
,
0000
0000
0000
0030
0002
0000
0000
0000
0000
0000
0000
0000
0000
0000
0000
0000
,
0000
0000
0000
0003
;
